背景音乐
动漫∨
fy939
请勿回复无意义感谢文字

梦幻天使
UID:1248818
精华:282
主题:678
帖子:1436
威望:178040
天使币:304023
宣传度:6966
天然°:27122
腹黑°:26928
精灵:2623
龙之印章:0
阅读权限:130
注册时间:2015-4-26
状态: 不在线

  • TA的每日心情
    开心

    签到天数: 46天[LV.5]常住居民I

  • fy939 发表于 2020-3-28 22:53:05 |显示全部楼层

    新增扫图和官方字幕(一波三折的换种修正)



    制作吐槽/Making_Comment

    又到了魔法未来的季节,又双叒是来自本组头号葱粉 izumi 提名。

    原盘质量还是一如既往的好,带有中等强度的噪点。我们对原盘做了自适应降噪处理来控制体积,以及预防性的去色带处理,配合较高的码率进行压制。
    The season of Magical Mirai arrives once again. The project was proposed by our No.1 Miku Fan izumi as always before.

    The original source is as great as before with moderate noise. We applied adaptive de-noising to control the file size. We used precautionary de-banding and encoded with mid-high level of bit-rates.

    虽然近两年已经很少听新出的术曲了,不过每次看魔法未来的Live都依旧能唤醒对术力口的热情。《魔法未来 2018》也是当初加入VCB-S的契机之一——发布之后第一时间下载,发现成品中用的是自己之前放流的CD。当时正值招新,便试着报名了。一年后的这次魔法未来,从组员提名到发布也不到两周,估计还没来得及上意向列表就发布了,也算是给各位V家粉丝的一个惊喜吧。ではまた、ミライで。 By 百江なぎさ


    感谢所有参与制作者/Thanks_to_our_participating_members

    总监 / Script:鲤伴
    压制 / Encode:鲤伴
    整理 / Collate:百江なぎさ
    复查 / QC:七条天空,鲤伴
    发布 / Upload:神楽坂真羽
    分流 / Seed:VCB-Studio CDN 分流成员(详细名单见主站)

    感谢所有资源提供者/Thanks_to_all_resource_providers

    Scan&Subtitle: hank0425



    媒体信息

    General
    Unique ID : 248955353054985338136912940837224996879 (0xBB4B0E92BAAA0AACB6CE3A85451E600F)
    Complete name : D:\SAYA IS ∞ LOLICON!\[VCB-Studio] Hatsune Miku Magical Mirai 2019 [Ma10p_1080p]\[VCB-Studio] Hatsune Miku Magical Mirai 2019 [Ma10p_1080p][x265_flac].mkv
    Format : Matroska
    Format version : Version 4
    File size : 8.29 GiB
    Duration : 1 h 59 min
    Overall bit rate mode : Variable
    Overall bit rate : 9 901 kb/s
    Encoded date : UTC 2020-03-23 07:24:23
    Writing application : mkvmerge v35.0.0 ('All The Love In The World') 64-bit
    Writing library : libebml v1.3.9 + libmatroska v1.5.2

    Video
    ID : 1
    Format : HEVC
    Format/Info : High Efficiency Video Coding
    Format profile : Main 10@L4.1@Main
    Codec ID : V_MPEGH/ISO/HEVC
    Duration : 1 h 59 min
    Bit rate : 8 041 kb/s
    Width : 1 920 pixels
    Height : 1 080 pixels
    Display aspect ratio : 16:9
    Frame rate mode : Constant
    Frame rate : 59.940 (60000/1001) FPS
    Color space : YUV
    Chroma subsampling : 4:2:0
    Bit depth : 10 bits
    Bits/(Pixel*Frame) : 0.065
    Stream size : 6.73 GiB (81%)
    Writing library : x265 3.3+2-gbe2d82093:[Windows][MSVC 1924][64 bit] 10bit
    Encoding settings : cpuid=1111039 / frame-threads=4 / numa-pools=+ / wpp / no-pmode / no-pme / no-psnr / no-ssim / log-level=2 / input-csp=1 / input-res=1920x1080 / interlace=0 / total-frames=0 / level-idc=0 / high-tier=1 / uhd-bd=0 / ref=4 / no-allow-non-conformance / no-repeat-headers / annexb / no-aud / no-hrd / info / hash=0 / no-temporal-layers / no-open-gop / min-keyint=1 / keyint=480 / gop-lookahead=0 / bframes=6 / b-adapt=2 / b-pyramid / bframe-bias=0 / rc-lookahead=90 / lookahead-slices=0 / scenecut=40 / hist-scenecut=0 / radl=0 / no-splice / no-intra-refresh / ctu=32 / min-cu-size=8 / rect / no-amp / max-tu-size=32 / tu-inter-depth=3 / tu-intra-depth=3 / limit-tu=4 / rdoq-level=2 / dynamic-rd=0.00 / no-ssim-rd / signhide / no-tskip / nr-intra=0 / nr-inter=0 / no-constrained-intra / no-strong-intra-smoothing / max-merge=4 / limit-refs=1 / limit-modes / me=3 / subme=4 / merange=38 / temporal-mvp / no-frame-dup / no-hme / weightp / weightb / no-analyze-src-pics / deblock=-1:-1 / no-sao / no-sao-non-deblock / rd=5 / selective-sao=0 / no-early-skip / rskip / no-fast-intra / no-tskip-fast / no-cu-lossless / b-intra / no-splitrd-skip / rdpenalty=0 / psy-rd=2.00 / psy-rdoq=1.00 / no-rd-refine / no-lossless / cbqpoffs=-1 / crqpoffs=-1 / rc=crf / crf=20.0 / qcomp=0.60 / qpstep=4 / stats-write=0 / stats-read=0 / ipratio=1.40 / pbratio=1.20 / aq-mode=3 / aq-strength=0.70 / cutree / zone-count=0 / no-strict-cbr / qg-size=8 / no-rc-grain / qpmax=69 / qpmin=0 / no-const-vbv / sar=0 / overscan=0 / videoformat=5 / range=0 / colorprim=2 / transfer=2 / colormatrix=1 / chromaloc=0 / display-window=0 / cll=0,0 / min-luma=0 / max-luma=1023 / log2-max-poc-lsb=8 / vui-timing-info / vui-hrd-info / slices=1 / no-opt-qp-pps / no-opt-ref-list-length-pps / no-multi-pass-opt-rps / scenecut-bias=0.05 / hist-threshold=0.01 / no-opt-cu-delta-qp / no-aq-motion / no-hdr10 / no-hdr10-opt / no-dhdr10-opt / no-idr-recovery-sei / analysis-reuse-level=0 / analysis-save-reuse-level=0 / analysis-load-reuse-level=0 / scale-factor=0 / refine-intra=0 / refine-inter=0 / refine-mv=1 / refine-ctu-distortion=0 / no-limit-sao / ctu-info=0 / no-lowpass-dct / refine-analysis-type=0 / copy-pic=1 / max-ausize-factor=1.0 / no-dynamic-refine / no-single-sei / no-hevc-aq / no-svt / no-field / qp-adaptation-range=1.00 / no-scenecut-aware-qpconformance-window-offsets / right=0 / bottom=0
    Default : Yes
    Forced : No
    Color range : Limited
    Matrix coefficients : BT.709

    Audio
    ID : 2
    Format : FLAC
    Format/Info : Free Lossless Audio Codec
    Codec ID : A_FLAC
    Duration : 1 h 59 min
    Bit rate mode : Variable
    Bit rate : 1 847 kb/s
    Channel(s) : 2 channels
    Channel layout : L R
    Sampling rate : 48.0 kHz
    Frame rate : 11.719 FPS (4096 SPF)
    Bit depth : 24 bits
    Compression mode : Lossless
    Stream size : 1.55 GiB (19%)
    Writing library : libFLAC 1.3.2 (UTC 2017-01-01)
    Language : Japanese
    Default : Yes
    Forced : No

    Text
    ID : 3
    Format : PGS
    Muxing mode : zlib
    Codec ID : S_HDMV/PGS
    Codec ID/Info : Picture based subtitle format used on BDs/HD-DVDs
    Duration : 1 h 52 min
    Bit rate : 21.6 kb/s
    Count of elements : 2446
    Stream size : 17.3 MiB (0%)
    Language : Japanese
    Default : Yes
    Forced : No

    Menu
    00:00:00.000 : ja:Opening
    00:01:40.934 : ja:01. テオ / Omoi
    00:05:09.075 : ja:02. すきなことだけでいいです / ピノキオピー
    00:09:45.785 : ja:03. 愛の詩 / LamazeP
    00:13:44.357 : ja:MC1
    00:14:46.619 : ja:04. 快晴 / Orangestar
    00:19:09.648 : ja:05. 深海シティアンダーグラウンド / 田中B
    00:24:11.283 : ja:06. メインキャラクター / *Luna
    00:27:30.916 : ja:07. ロミオとシンデレラ / doriko
    00:30:46.344 : ja:08. からくりピエロ / 40mP
    00:34:07.746 : ja:09. Catch the Wave / livetune
    00:37:35.887 : ja:10. 劣等上等 / Giga
    00:41:35.426 : ja:11. キレキャリオン / ポリスピカデリー
    00:44:38.075 : ja:12. ある計画は今も密かに / 森羅
    00:49:01.772 : ja:13. ラムネイドブルーの憧憬 / アオトケイ
    00:53:28.372 : ja:Megurine Luka 10th Anniversary
    00:54:25.195 : ja:14. Never Die / ゆよゆっぺ
    00:57:59.142 : ja:15. どりーみんチュチュ / emon(Tes.)
    01:02:06.990 : ja:16. ルカルカ★ナイトフィーバー / samfree
    01:05:27.924 : ja:17. それがあなたの幸せとしても / Heavenz
    01:10:25.221 : ja:MC2
    01:11:28.618 : ja:18. Jump for Joy / EasyPop
    01:15:50.112 : ja:Band Introduction
    01:17:51.200 : ja:19. 大江戸ジュリアナイト / Mitchie M
    01:21:50.272 : ja:20. ぶれないアイで / Mitchie M
    01:25:46.274 : ja:21. ヒバナ / DECO*27
    01:29:12.747 : ja:22. グリーンライツ・セレナーデ / Omoi
    01:33:21.029 : ja:23. 僕が夢を捨てて大人になるまで / 傘村トータ
    01:39:09.777 : ja:Encore
    01:40:14.175 : ja:24. ローリンガール / wowaka [Encore]
    01:43:33.307 : ja:25. Hand in Hand / livetune [Encore]
    01:49:12.346 : ja:MC3
    01:49:31.031 : ja:26. ブレス・ユア・ブレス / 和田たけあき [Encore]
    01:55:29.923 : ja:Ending Credit


    媒体信息

    General
    Unique ID : 44483847459161773539143313129561110958 (0x21774702CA20E12BAEA99C90D4CFB9AE)
    Complete name : D:\SAYA IS ∞ LOLICON!\[VCB-Studio] Hatsune Miku Magical Mirai 2019 [Ma10p_1080p]\[VCB-Studio] Hatsune Miku Magical Mirai 2019 [Ma10p_1080p][x265_flac].mka
    Format : Matroska
    Format version : Version 4
    File size : 3.70 GiB
    Duration : 1 h 59 min
    Overall bit rate mode : Variable
    Overall bit rate : 4 426 kb/s
    Encoded date : UTC 2020-03-23 07:14:16
    Writing application : mkvmerge v35.0.0 ('All The Love In The World') 64-bit
    Writing library : libebml v1.3.9 + libmatroska v1.5.2

    Audio
    ID : 1
    Format : FLAC
    Format/Info : Free Lossless Audio Codec
    Codec ID : A_FLAC
    Duration : 1 h 59 min
    Bit rate mode : Variable
    Bit rate : 4 426 kb/s
    Channel(s) : 6 channels
    Channel layout : L R C LFE Ls Rs
    Sampling rate : 48.0 kHz
    Frame rate : 11.719 FPS (4096 SPF)
    Bit depth : 24 bits
    Compression mode : Lossless
    Stream size : 3.70 GiB (100%)
    Writing library : libFLAC 1.3.3 (UTC 2019-08-04)
    Language : Japanese
    Default : Yes
    Forced : No




    解压密码:fy939
    QS0x01

    梦幻天使
    UID:1761011
    精华:0
    主题:42
    帖子:453
    威望:8343
    天使币:38028
    宣传度:170
    天然°:2022
    腹黑°:2022
    精灵:60
    龙之印章:0
    阅读权限:130
    注册时间:2018-8-13
    状态: 不在线

  • TA的每日心情
    无聊

    签到天数: 316天[LV.Master]伴坛终老

  • QS0x01 发表于 2020-3-29 10:31:42 来自天使动漫安卓APP |显示全部楼层
    影子?

    使用道具 举报

    当初的不信任

    LEVEL 4 睿智
    UID:1323027
    精华:0
    主题:9
    帖子:1626
    威望:1697
    天使币:3639
    宣传度:0
    天然°:0
    腹黑°:0
    精灵:0
    龙之印章:0
    阅读权限:35
    注册时间:2015-8-25
    状态: 不在线

  • TA的每日心情
    开心

    签到天数: 1205天[LV.Master]伴坛终老

  • 当初的不信任 发表于 2020-3-29 14:31:40 |显示全部楼层
    [VCB-Studio] Hatsune Miku Magical Mirai 2019 [Ma10p_1080p][x265_flac](1).mkv
    [VCB-Studio] Hatsune Miku Magical Mirai 2019 [Ma10p_1080p][x265_flac].mkv
    压缩包内文件重复了,两个文件校验和也是相同的
    升级

    使用道具 举报

    didacat135
    哆啦音

    梦幻天使
    UID:1351703
    精华:0
    主题:1
    帖子:115
    威望:696
    天使币:3396
    宣传度:100
    天然°:30
    腹黑°:30
    精灵:0
    龙之印章:0
    阅读权限:130
    注册时间:2015-10-22
    来自:广东
    状态: 不在线

  • TA的每日心情
    无聊

    签到天数: 80天[LV.6]常住居民II

  • didacat135 发表于 2020-3-29 15:59:50 |显示全部楼层
    支持一下楼主,谢谢楼主的辛苦上传和分享

    使用道具 举报

    aaa.akkarin
    Akkarin

    LEVEL 2 升华
    UID:1771045
    精华:0
    主题:1
    帖子:531
    威望:542
    天使币:5157
    宣传度:0
    天然°:5
    腹黑°:5
    精灵:0
    龙之印章:0
    阅读权限:20
    注册时间:2018-9-23
    状态: 不在线

  • TA的每日心情
    无聊

    签到天数: 518天[LV.Master]伴坛终老

  • aaa.akkarin 发表于 2020-3-29 20:38:16 |显示全部楼层
    为什么我这里看到的只有一个空白文件夹?

    使用道具 举报

    fy939
    请勿回复无意义感谢文字

    梦幻天使
    UID:1248818
    精华:282
    主题:678
    帖子:1436
    威望:178040
    天使币:304023
    宣传度:6966
    天然°:27122
    腹黑°:26928
    精灵:2623
    龙之印章:0
    阅读权限:130
    注册时间:2015-4-26
    状态: 不在线

  • TA的每日心情
    开心

    签到天数: 46天[LV.5]常住居民I

  • fy939 发表于 2020-3-30 00:08:08 |显示全部楼层
    aaa.akkarin 发表于 2020-3-29 20:38
    为什么我这里看到的只有一个空白文件夹?

    文件重复了,刚才重新传的,已经改好了
    解压密码:fy939

    使用道具 举报

    aaa.akkarin
    Akkarin

    LEVEL 2 升华
    UID:1771045
    精华:0
    主题:1
    帖子:531
    威望:542
    天使币:5157
    宣传度:0
    天然°:5
    腹黑°:5
    精灵:0
    龙之印章:0
    阅读权限:20
    注册时间:2018-9-23
    状态: 不在线

  • TA的每日心情
    无聊

    签到天数: 518天[LV.Master]伴坛终老

  • aaa.akkarin 发表于 2020-3-30 12:49:12 |显示全部楼层
    fy939 发表于 2020-3-30 00:08
    文件重复了,刚才重新传的,已经改好了

    嗯嗯,感谢大佬!

    使用道具 举报

    hank0425

    LEVEL 4 睿智
    UID:1485427
    精华:2
    主题:58
    帖子:1698
    威望:5794
    天使币:30623
    宣传度:589
    天然°:602
    腹黑°:602
    精灵:69
    龙之印章:0
    阅读权限:60
    注册时间:2016-4-16
    来自:Taiwan
    状态: 不在线

  • TA的每日心情
    难过

    签到天数: 1334天[LV.Master]伴坛终老

  • hank0425 发表于 2020-3-30 14:27:02 |显示全部楼层
    本帖最后由 hank0425 于 2020-3-30 14:30 编辑

    請問會發到VCB的官網嗎?
    另外我手邊有台壓版,內容包含LIVE&MAKING的官方中文字幕,以及ボカロP座談會的翻譯文本(一樣是官方翻譯)
    可以提供
    如果能在發布時加入的話就太好了
    因為論壇不知為何無法登入(點了我不是機器人,按了登入之後,一直被重整頁面)
    自抓帖子失效請私訊或回覆,回覆不一定看的到,一年以上的帖子請用私訊告知失效補檔
    近期在整理雲端資料,會有部分資源失效,若有發現請私訊告知我

    使用道具 举报

    fy939
    请勿回复无意义感谢文字

    梦幻天使
    UID:1248818
    精华:282
    主题:678
    帖子:1436
    威望:178040
    天使币:304023
    宣传度:6966
    天然°:27122
    腹黑°:26928
    精灵:2623
    龙之印章:0
    阅读权限:130
    注册时间:2015-4-26
    状态: 不在线

  • TA的每日心情
    开心

    签到天数: 46天[LV.5]常住居民I

  • fy939 发表于 2020-4-2 02:18:27 |显示全部楼层
    hank0425 发表于 2020-3-30 14:27
    請問會發到VCB的官網嗎?
    另外我手邊有台壓版,內容包含LIVE&MAKING的官方中文字幕,以及ボカロP座談會的翻 ...

    应该有相关组员在TSDM联系你了,看一下私信
    解压密码:fy939

    使用道具 举报

    环佩叮珰

    见习天使
    UID:227139
    精华:0
    主题:0
    帖子:48
    威望:24
    天使币:78
    宣传度:1
    天然°:0
    腹黑°:0
    精灵:0
    龙之印章:0
    阅读权限:12
    注册时间:2012-3-17
    状态: 不在线

  • TA的每日心情
    慵懒

    签到天数: 11天[LV.3]偶尔看看II

  • 环佩叮珰 发表于 2020-4-7 01:44:23 |显示全部楼层
    感谢大佬分享~

    使用道具 举报

    您需要登录后才可以回帖 登录 | 注册

    Archiver|手机版|WAP| 天使动漫论坛

    本站成立于美利堅合眾國,所處USA,所有內容資源來自網絡&網友分享,僅供日語學習試用,請于24小時內銷毀。如侵犯您的權益請告知,將會第壹時間刪除。 我的邮箱

    GMT+8, 2024-6-17 06:22 , Processed in 0.239014 second(s), 56 queries , Gzip On.

    Powered by Discuz! TSDM SP

    © 2010-2014 Style by chibimiku@TSDM

    回顶部